<?xml version="1.0" standalone="no"?>
<!DOCTYPE svg PUBLIC "-//W3C//DTD SVG 1.1//EN" "http://www.w3.org/Graphics/SVG/1.1/DTD/svg11.dtd" >
<svg xmlns="http://www.w3.org/2000/svg">
<metadata>Generated by IcoMoon</metadata>
<defs>
<font id="carleader" horiz-adv-x="1024">
<font-face units-per-em="1024" ascent="960" descent="-64" />
<missing-glyph horiz-adv-x="1024" />
<glyph unicode="&#x20;" horiz-adv-x="512" d="" />
<glyph unicode="&#xe900;" glyph-name="handsshake" horiz-adv-x="1344" d="M1344.002 785.979c-0.531 14.338-10.355 25.223-24.427 26.551-6.637 0.797-13.275 0-19.648 0-69.564-0.266-138.065-7.168-206.3-20.975-41.685-8.497-82.573-19.383-121.869-36.109-14.868-6.373-20.709-17.789-18.32-33.454 0.266-1.327 0.266-2.655 0.266-4.513-14.338 5.576-27.878 10.62-41.419 15.931-48.323 19.913-96.115 40.623-144.436 60.005-35.843 14.338-73.28 20.178-112.045 13.010-34.516-6.373-63.988-23.365-91.866-44.074-4.248-3.186-10.089-5.31-15.399-5.31-67.97-0.266-135.941-0.266-204.176-0.266-3.186 0-6.637 0-10.62 0 0.797 7.7 1.327 14.072 2.124 20.178 2.124 14.338-2.655 25.488-14.868 33.188-7.7 4.779-15.665 9.558-23.896 13.010-32.924 14.072-67.439 22.303-102.752 27.082-53.899 7.168-108.062 12.744-162.226 18.054-20.178 1.858-32.127-10.355-32.127-30.533 0-166.474 0-333.213 0-499.687 0-18.054 11.152-30.268 28.94-30.268 55.491-0.266 110.983-0.266 166.208 0 14.072 0 23.365 7.168 28.144 20.975 1.858 5.576 3.982 11.417 6.107 18.054 2.921-2.655 4.779-4.248 6.373-6.107 26.020-26.285 50.181-55.491 78.856-78.59 80.98-65.846 164.084-129.568 246.392-193.822 23.099-18.054 49.915-29.206 78.325-36.109 32.127-7.7 63.722-7.168 92.928 11.417 2.124 1.327 5.576 1.858 7.7 1.062 44.074-14.072 90.539 10.62 112.311 47.26 3.718 6.107 7.168 8.497 14.602 7.965 40.623-2.921 74.874 10.355 98.504 44.074 7.168 10.355 13.275 15.931 26.817 17.523 43.278 5.31 84.432 47.26 78.059 100.362-0.266 2.921 1.593 7.434 3.982 9.028 12.213 8.762 24.958 16.993 38.764 26.285 2.124-7.434 4.248-13.807 6.107-20.178 5.576-19.117 14.072-25.754 33.985-25.754 52.305 0 104.61 0 156.916 0 23.63 0 33.719 10.355 33.719 33.985 0 160.101 0 319.938 0 480.039 0.266 7.434 0.266 14.072 0.266 20.709zM220.636 515.161c-13.010-45.933-27.082-91.6-40.623-137.268-1.327-4.248-2.655-8.231-4.248-12.479-40.092 0-79.121 0-118.417 0 0 148.419 0 296.042 0 445.258 13.807-1.327 27.613-2.389 41.153-3.982 52.305-5.576 104.345-12.479 155.057-26.551 26.020-7.168 25.754-7.434 21.506-33.719-13.010-78.325-33.188-155.057-54.429-231.258zM977.866 217.26c-5.045 0.266-10.886 3.452-14.602 7.168-35.313 34.516-70.359 69.298-105.407 104.345-18.054 18.054-35.313 36.64-53.367 54.96-11.947 12.213-28.94 12.479-40.358 1.062s-11.683-28.409 0.266-40.623c50.181-51.244 100.628-102.22 151.34-153.198 8.231-8.231 8.497-9.823 0.531-18.32-10.886-11.683-24.958-17.523-40.623-16.462-6.903 0.531-15.134 3.718-20.178 8.497-38.234 36.906-75.67 74.608-113.372 112.311-7.168 7.168-13.807 14.868-20.709 22.038-11.152 11.947-28.94 13.010-40.623 2.655-11.683-10.62-12.744-28.94-1.327-40.623 40.358-41.685 80.714-82.839 121.603-123.992 6.107-6.107 7.7-11.152 1.593-16.993-6.903-6.637-13.807-13.807-22.038-18.32-11.947-6.903-24.427-5.31-34.782 4.779-39.029 38.498-77.794 76.998-116.558 115.761-6.637 6.637-12.744 13.807-19.383 20.444-12.479 12.744-29.472 13.807-41.419 2.655-11.683-10.886-12.213-28.94 0-41.419 35.843-37.171 71.953-74.077 108.062-110.983 2.124-2.124 4.248-4.248 6.107-6.373-0.266-0.797-0.531-1.593-0.797-2.389-9.823 1.062-19.648 1.327-29.206 3.718-21.241 5.045-40.889 13.807-58.678 27.082-84.963 62.394-169.129 126.116-248.25 195.945-33.188 29.206-62.66 62.66-93.459 94.786-2.124 2.389-2.124 7.965-1.062 11.683 15.931 58.146 32.658 116.293 48.057 174.705 9.292 35.579 16.993 71.687 25.488 108.327 55.226 0 110.983 0 168.332 0-2.655-3.186-4.779-5.841-6.903-8.231-29.206-33.454-53.899-69.829-65.315-113.372-2.124-8.497-3.452-17.258-3.982-26.020-2.124-43.544 23.099-71.422 71.156-79.918 57.35-10.089 101.955 11.417 138.33 54.694 3.186 3.982 8.497 6.637 13.541 8.497 15.399 6.107 31.064 11.947 46.729 17.523 3.186 1.062 8.231 0.797 10.62-1.062 67.439-55.757 134.613-111.779 201.787-168.066 34.251-28.675 68.235-57.881 96.38-92.928 6.373-7.965 12.213-16.993 16.196-26.285 9.558-23.099-9.292-49.384-33.719-48.057zM1090.442 351.342c-14.868-10.62-30.003-20.444-45.402-31.064-60.27 71.953-134.347 126.913-204.972 185.591-40.092 33.454-79.387 67.704-118.948 101.955-9.823 8.497-20.178 11.152-32.127 6.637-10.886-3.982-21.506-9.028-32.392-12.744-14.072-4.779-28.675-9.028-43.013-12.744-9.292-2.389-16.727-6.373-22.303-14.602-11.417-16.727-24.958-31.595-43.544-40.889-21.506-10.62-43.278-9.292-65.049-1.062-9.558 3.718-11.417 12.213-9.028 20.178 5.045 16.462 9.823 33.188 17.789 48.323 22.303 43.808 58.412 75.935 95.318 107.265 22.568 19.117 46.729 35.313 76.201 41.685 34.516 7.7 66.643-1.593 98.238-14.338 74.077-29.737 148.154-59.739 221.965-89.742 3.718-1.593 7.434-5.576 9.028-9.558 28.675-76.732 57.084-153.73 85.229-230.727 5.576-15.134 10.62-30.268 15.134-45.668 0.797-2.124-0.266-7.168-2.124-8.497zM1286.917 308.86c-10.089 0-19.913 0-29.472 0-26.020 0-52.305 0.266-78.325-0.266-7.434 0-10.62 2.124-13.010 9.558-40.623 126.116-83.9 251.437-135.41 373.837-2.921 6.903-6.107 13.807-9.823 22.038 86.821 28.144 175.502 39.826 266.305 42.216-0.266-149.481-0.266-297.9-0.266-447.382z" />
<glyph unicode="&#xe901;" glyph-name="icon" d="M512.030 928c-265.11 0-480.030-214.982-480.030-480.090 0-264.99 214.921-479.91 480.030-479.91 265.079 0 479.94 214.921 479.94 479.91 0 265.11-214.861 480.090-479.94 480.090zM512.030 113.788c-184.313 0-334.301 149.899-334.301 334.152 0 184.434 149.988 334.422 334.301 334.422 184.345 0 334.212-150.020 334.212-334.422 0-184.252-149.899-334.152-334.212-334.152zM553.306 474.409l0.030 185.31c0 22.781-18.46 41.185-41.306 41.185-22.902 0-41.395-18.4-41.395-41.185v-267.981h268.009c22.721 0 41.274 18.46 41.274 41.306 0 22.902-18.553 41.366-41.274 41.366 0.030 0-185.341 0-185.341 0z" />
<glyph unicode="&#xe902;" glyph-name="mail" d="M1014.98 756.558l-310.558-308.558 310.558-308.558c5.614 11.734 9.020 24.706 9.020 38.558v540c0 13.854-3.406 26.824-9.020 38.558zM934 808h-844c-13.854 0-26.824-3.406-38.558-9.020l396.926-394.926c35.096-35.096 92.168-35.096 127.264 0l396.926 394.926c-11.734 5.614-24.704 9.020-38.558 9.020zM9.020 756.558c-5.614-11.734-9.020-24.704-9.020-38.558v-540c0-13.854 3.406-26.826 9.020-38.558l310.558 308.558-310.558 308.558zM662 405.578l-43.946-43.946c-58.478-58.478-153.632-58.478-212.11 0l-43.944 43.946-310.558-308.558c11.734-5.614 24.704-9.020 38.558-9.020h844c13.854 0 26.824 3.406 38.558 9.020l-310.558 308.558z" />
<glyph unicode="&#xe903;" glyph-name="15874" d="M740.264 960h-456.528c-38.034 0-69.164-31.1-69.164-69.164v-885.643c0-38.064 31.13-69.193 69.164-69.193h456.528c38.034 0 69.164 31.071 69.164 69.164v885.672c0 38.064-31.13 69.164-69.164 69.164zM438.974 910.146h146.052c4.623 0 8.368-3.745 8.368-8.397 0-4.623-3.745-8.368-8.368-8.368h-146.052c-4.623 0-8.368 3.745-8.368 8.368 0 4.652 3.745 8.397 8.368 8.397zM512-29.418c-19.105 0-34.582 15.477-34.582 34.611s15.477 34.582 34.582 34.582 34.582-15.448 34.582-34.582-15.477-34.611-34.582-34.611zM761.3 64h-498.6v786.315h498.6v-786.315z" />
<glyph unicode="&#xe904;" glyph-name="user" d="M988.837 731.609c0 112.197-87.264 190.112-190.112 190.112-193.228-3.116-389.574-3.116-582.802 0-105.964 3.116-193.228-81.031-190.112-190.112 3.116-96.614 0-193.228 0-289.842s3.116-193.228 0-292.96c-3.116-109.080 84.147-193.228 190.112-190.112 193.228 3.116 386.456 3.116 582.802 0 109.080 0 193.228 81.031 190.112 190.112 0 193.228 0 389.574 0 582.802zM932.739 145.692c0-62.333-31.165-105.964-87.264-121.547-15.583-3.116-31.165-6.232-46.748-6.232-193.228 0-386.456 0-579.685 0-84.147 0-134.013 49.866-134.013 134.013 0 193.228 0 386.456 0 579.685 0 84.147 49.866 134.013 134.013 134.013 193.228 0 389.574 0 582.802 0 81.031 0 130.897-52.982 130.897-134.013 0-96.614 0-193.228 0-292.96 0-96.614 0-196.344 0-292.96zM720.81 326.453c-18.699 12.467-37.4 24.933-56.098 31.165-77.915 31.165-155.828 34.283-236.86 21.817-49.866-9.35-96.614-24.933-134.013-56.098-24.933-21.817-40.516-46.748-40.516-84.147 0-34.283 0-68.565 0-102.848 0-6.232 0-12.467 0-18.699 171.413 0 339.708 0 511.121 0 0 40.516 0 77.915 0 118.431 3.116 40.516-12.467 68.565-43.632 90.382zM505.768 404.368c96.614 0 177.645 81.031 177.645 177.645 0 112.197-96.614 186.996-177.645 177.645-81.031 9.35-177.645-68.565-177.645-174.529 3.116-99.73 81.031-177.645 177.645-180.761z" />
<glyph unicode="&#xe905;" glyph-name="cart" horiz-adv-x="1104" d="M1041.6 789.575c-241.351 0-482.525 0-723.876 0-6.46 0-12.919 0-19.38 0-8.435 36.606-16.507 72.135-24.763 107.487-4.306 18.662-21.354 36.069-39.658 36.428-67.651 1.616-135.121 1.795-202.772 2.512-0.717 0-1.616-1.255-1.975-1.795 0-25.122 0-50.064 0-75.726 48.45 0 95.823 0 144.453 0 5.204-22.43 10.048-43.246 15.074-63.883 22.789-95.106 45.759-190.21 68.189-285.496 19.199-81.108 37.324-162.398 56.703-243.505 8.794-36.965 21.533-46.476 57.96-46.297 182.314 0.897 364.628 0.359 546.945 0.359 22.251 0 38.22 12.381 43.067 33.556 5.563 24.046 10.948 47.913 16.328 71.955 22.789 101.745 45.4 203.489 68.189 305.234 9.151 40.733 19.199 81.287 27.455 122.202 5.204 26.016-5.385 36.965-31.94 36.965zM871.667 316.205c-153.783 0-307.388 0-463.145 0-28.352 123.994-57.244 250.323-86.133 376.472 211.028 0 420.975 0 633.079 0-28.172-126.687-55.627-250.143-83.8-376.472zM402.779 124.735c-49.526 1.975-82.903-39.658-82.544-82.544 0.359-43.426 33.735-80.39 80.39-81.828 46.297-1.435 86.133 34.811 85.774 83.082-0.359 47.372-38.582 83.8-83.62 81.287zM883.69 124.735c-42.888 5.563-82.724-41.449-83.62-79.135-1.076-45.579 41.632-85.058 80.928-85.596 45.579-0.538 83.62 40.553 84.698 81.287 1.255 45.041-42.17 87.929-82.006 83.441zM468.816 530.817c53.473 0 106.949 0 160.422 0s106.949 0 160.422 0c22.789 0 34.273 11.485 34.452 33.556 0.179 23.508-11.127 35.17-34.452 35.17-106.949 0-213.898 0-320.845 0-22.608 0-34.273-11.485-34.452-33.556-0.179-23.508 11.127-35.17 34.452-35.17zM468.637 399.825c53.473 0 106.949 0 160.422 0s106.949 0 160.422 0c22.789 0 34.452 11.485 34.632 33.377 0.179 23.687-11.127 35.349-34.452 35.349-106.949 0-213.898 0-320.845 0-22.789 0-34.452-11.485-34.632-33.556 0-23.508 11.127-35.17 34.452-35.17z" />
<glyph unicode="&#xe906;" glyph-name="addcar" horiz-adv-x="1168" d="M847.479 369.289c159.752 0 293.498 130.030 293.498 293.498s-130.030 297.213-293.498 297.213c-163.468 0-293.498-130.030-293.498-293.498 0-167.183 130.030-297.213 293.498-297.213zM706.303 696.224c33.436 0 66.873 0 107.74 0 0 37.151 0 74.304 0 111.455 33.436 0 59.443 0 89.164 0 0-33.436 0-70.588 0-107.74 37.151 0 74.304 0 111.455 0 0-33.436 0-59.443 0-89.164-33.436 0-70.588 0-107.74 0 0-37.151 0-74.304 0-111.455-29.721 0-59.443 0-89.164 0 0 37.151 0 70.588 0 107.74-37.151 0-70.588 0-107.74 0-3.715 29.721-3.715 59.443-3.715 89.164zM1140.977 205.822c-11.145 14.861-14.861 26.006-7.43 44.583 22.291 59.443 3.715 118.885-40.866 152.322-18.576-18.576-37.151-40.866-48.298-52.013 3.715-33.436 11.145-59.443 3.715-78.019-29.721-74.304-29.721-78.019 29.721-130.030-29.721-52.013-85.449-7.43-122.6-29.721-3.715-33.436 7.43-78.019-40.866-81.734-55.728-3.715-48.298 44.583-52.013 81.734-178.328 0-356.656 0-531.268 0-3.715-66.873-14.861-85.449-44.583-85.449-63.158 3.715-40.866 55.728-52.013 89.164-44.583 0-85.449 0-126.315 0-14.861 85.449 33.436 148.607 118.885 152.322s156.037 29.721 208.049 96.594c11.145 11.145 22.291 22.291 33.436 33.436 18.576 14.861 40.866 29.721 66.873 52.013-3.715 11.145-11.145 26.006-14.861 40.866-14.861 37.151-29.721 40.866-66.873 18.576-26.006-18.576-48.298-40.866-70.588-63.158-48.298-55.728-104.025-81.734-178.328-89.164-126.315-11.145-196.904-100.309-196.904-226.625 0-74.304 29.721-107.74 104.025-104.025 22.291 0 33.436-7.43 44.583-22.291 63.158-92.879 167.183-89.164 230.34 0 7.43 11.145 26.006 18.576 37.151 22.291 104.025 0 208.049 0 315.789 0 22.291 0 33.436-7.43 48.298-26.006 59.443-89.164 167.183-85.449 226.625 0 11.145 14.861 18.576 22.291 40.866 26.006 85.449 3.715 133.746 111.455 85.449 178.328z" />
<glyph unicode="&#xe907;" glyph-name="mail1" horiz-adv-x="1344" d="M1279.599 664.591c-7.616 0-13.329-3.987-15.431-5.701l-370.082-325.192c-7.19-6.474-16.185-9.892-26.011-9.892-9.856 0-19.185 3.502-26.425 10.009l-358.825 314.302c-3.004 2.845-10.107 8.488-19.133 8.488-2.263 0-22.111-0.776-22.111-27.544v-482.509c0-31.423 25.35-56.988 56.515-56.988h748.272c31.103 0 55.465 25.032 55.465 56.988v489.978c-0.003 27.275-19.957 28.065-22.23 28.065zM475.659 762.161l361.099-311.537c3.341-3.215 14.456-12.515 31.306-12.515 16.104 0 27.5 9.223 29.633 11.078l365.818 319.17c4.969 4.664 15.309 14.363 10.388 26.816-2.711 6.843-9.334 11.267-16.881 11.267h-769.596c-9.249 0-17.459-5.255-20.934-13.384-2.349-5.51-4.36-16.777 8.61-30.308l0.56-0.585zM315.266 618.685h-102.41c-18.824 0-34.137-15.314-34.137-34.137v-23.896c0-18.824 15.314-34.137 34.137-34.137h102.41c18.824 0 34.137 15.314 34.137 34.137v23.896c0 18.824-15.314 34.137-34.137 34.137zM315.266 468.485h-170.684c-18.824 0-34.137-15.314-34.137-34.137v-23.896c0-18.824 15.314-34.137 34.137-34.137h170.684c18.824 0 34.137 15.314 34.137 34.137v23.896c0 18.824-15.314 34.137-34.137 34.137zM315.266 318.281h-238.96c-18.824 0-34.137-15.314-34.137-34.137v-23.896c0-18.824 15.314-34.137 34.137-34.137h238.96c18.824 0 34.137 15.314 34.137 34.137v23.896c0 18.824-15.314 34.137-34.137 34.137z" />
<glyph unicode="&#xe908;" glyph-name="menu" d="M0 220.445h1024v-113.779h-1024v113.779zM0 504.888h1024v-113.779h-1024v113.779zM0 789.333h1024v-113.779h-1024v113.779z" />
<glyph unicode="&#xe909;" glyph-name="musica-searcher" d="M960.895 110.669l-205.078 205.074c-1.091 1.091-2.369 1.854-3.51 2.864 40.352 61.212 63.905 134.486 63.905 213.281 0 214.348-173.762 388.11-388.106 388.11s-388.106-173.762-388.106-388.106c0-214.34 173.758-388.106 388.102-388.106 78.799 0 152.071 23.553 213.281 63.905 1.015-1.136 1.773-2.413 2.861-3.505l205.082-205.082c30.808-30.804 80.753-30.804 111.565 0 30.804 30.808 30.804 80.753 0 111.561zM428.106 278.333c-140.041 0-253.564 113.524-253.564 253.56 0 140.041 113.528 253.564 253.564 253.564s253.56-113.528 253.56-253.564-113.528-253.56-253.56-253.56z" />
<glyph unicode="&#xe90a;" glyph-name="car-washing-machine" horiz-adv-x="1248" d="M946.421 427.887c-4.179 0-8.466-0.595-12.747-1.783l-24.198-6.665-30.963 75.433c-14.25 34.71-56.368 62.948-93.891 62.948h-321.746c-37.527 0-79.645-28.242-93.891-62.948l-30.915-75.305-23.738 6.54c-4.279 1.183-8.567 1.783-12.747 1.783-22.889 0-39.507-17.489-39.507-41.581v-0.886c0-24.858 17.887-45.592 41.456-50.078-12.87-32.472-23.22-85.526-23.22-119.684v-156.652c0-28.131 22.879-51.011 51.011-51.011h29.392c28.127 0 51.011 22.879 51.011 51.011v32.703h424.057v-32.703c0-28.131 22.879-51.011 51.011-51.011h29.392c28.131 0 51.011 22.879 51.011 51.011v156.652c0 34.131-10.336 87.145-23.191 119.608 23.805 4.298 41.938 25.122 41.938 50.148v0.886c0 24.093-16.618 41.581-39.507 41.581zM370.862 367.195l49.19 119.818c8.519 20.763 33.853 37.753 56.297 37.753h294.789c22.444 0 47.777-16.987 56.302-37.753l49.19-119.818c8.525-20.763-2.865-37.753-25.31-37.753h-455.153c-22.444 0-33.834 16.987-25.314 37.753zM494.155 187.304c0-11.221-9.182-20.403-20.403-20.403h-97.983c-11.221 0-20.403 9.182-20.403 20.403v41.692c0 11.221 9.182 20.403 20.403 20.403h97.983c11.221 0 20.403-9.182 20.403-20.403v-41.692zM891.106 187.304c0-11.221-9.182-20.403-20.403-20.403h-97.983c-11.221 0-20.403 9.182-20.403 20.403v41.692c0 11.221 9.182 20.403 20.403 20.403h97.983c11.221 0 20.403-9.182 20.403-20.403v-41.692zM1085.105 887.999h-922.213c-39.373 0-71.414-32.038-71.414-71.414v-773.108c0-16.905 13.704-30.608 30.608-30.608s30.608 13.704 30.608 30.608v773.108c0 5.528 4.671 10.203 10.203 10.203h922.213c5.528 0 10.203-4.671 10.203-10.203v-773.108c0-16.905 13.704-30.608 30.608-30.608s30.608 13.704 30.608 30.608v773.108c0 39.378-32.036 71.414-71.414 71.414zM220.019 805.9c-11.265 0-20.403-9.137-20.403-20.403v-14.279c0-11.265 9.137-20.403 20.403-20.403s20.403 9.137 20.403 20.403v14.279c0 11.265-9.137 20.403-20.403 20.403zM220.019 639.483c-11.265 0-20.403-9.137-20.403-20.403v-25.975c0-11.265 9.137-20.403 20.403-20.403s20.403 9.137 20.403 20.403v25.975c0 11.265-9.137 20.403-20.403 20.403zM220.019 728.535c-11.265 0-20.403-9.137-20.403-20.403v-25.975c0-11.265 9.137-20.403 20.403-20.403s20.403 9.137 20.403 20.403v25.975c0 11.265-9.137 20.403-20.403 20.403zM220.019 550.43c-11.265 0-20.403-9.137-20.403-20.403v-25.975c0-11.265 9.137-20.403 20.403-20.403s20.403 9.137 20.403 20.403v25.975c0 11.265-9.137 20.403-20.403 20.403zM220.019 461.375c-11.265 0-20.403-9.137-20.403-20.403v-14.279c0-11.265 9.137-20.403 20.403-20.403s20.403 9.137 20.403 20.403v14.279c0 11.265-9.137 20.403-20.403 20.403zM381.611 750.808c11.265 0 20.403 9.137 20.403 20.403v14.279c0 11.265-9.137 20.403-20.403 20.403s-20.403-9.137-20.403-20.403v-14.279c0-11.265 9.137-20.403 20.403-20.403zM361.209 661.487c0-11.265 9.137-20.403 20.403-20.403s20.403 9.137 20.403 20.403v32.003c0 11.265-9.137 20.403-20.403 20.403s-20.403-9.137-20.403-20.403v-32.003zM361.209 569.478c0-11.265 9.137-20.403 20.403-20.403s20.403 9.137 20.403 20.403v14.279c0 11.265-9.137 20.403-20.403 20.403s-20.403-9.137-20.403-20.403v-14.279zM866.387 750.808c11.265 0 20.403 9.137 20.403 20.403v14.279c0 11.265-9.137 20.403-20.403 20.403s-20.403-9.137-20.403-20.403v-14.279c0-11.265 9.137-20.403 20.403-20.403zM845.984 661.487c0-11.265 9.137-20.403 20.403-20.403s20.403 9.137 20.403 20.403v32.003c0 11.265-9.137 20.403-20.403 20.403s-20.403-9.137-20.403-20.403v-32.003zM845.984 569.478c0-11.265 9.137-20.403 20.403-20.403s20.403 9.137 20.403 20.403v14.279c0 11.265-9.137 20.403-20.403 20.403s-20.403-9.137-20.403-20.403v-14.279zM704.795 750.808c11.265 0 20.403 9.137 20.403 20.403v14.279c0 11.265-9.137 20.403-20.403 20.403s-20.403-9.137-20.403-20.403v-14.279c0-11.265 9.137-20.403 20.403-20.403zM684.393 682.919c0-11.265 9.137-20.403 20.403-20.403s20.403 9.137 20.403 20.403v25.754c0 11.265-9.137 20.403-20.403 20.403s-20.403-9.137-20.403-20.403v-25.754zM684.393 606.095c0-11.265 9.137-20.403 20.403-20.403s20.403 9.137 20.403 20.403v14.279c0 11.265-9.137 20.403-20.403 20.403s-20.403-9.137-20.403-20.403v-14.279zM543.203 750.808c11.265 0 20.403 9.137 20.403 20.403v14.279c0 11.265-9.137 20.403-20.403 20.403s-20.403-9.137-20.403-20.403v-14.279c0-11.265 9.137-20.403 20.403-20.403zM522.8 682.919c0-11.265 9.137-20.403 20.403-20.403s20.403 9.137 20.403 20.403v25.754c0 11.265-9.137 20.403-20.403 20.403s-20.403-9.137-20.403-20.403v-25.754zM522.8 606.095c0-11.265 9.137-20.403 20.403-20.403s20.403 9.137 20.403 20.403v14.279c0 11.265-9.137 20.403-20.403 20.403s-20.403-9.137-20.403-20.403v-14.279zM1027.979 805.9c-11.265 0-20.403-9.137-20.403-20.403v-14.279c0-11.265 9.137-20.403 20.403-20.403s20.403 9.137 20.403 20.403v14.279c0 11.265-9.137 20.403-20.403 20.403zM1027.979 550.43c-11.265 0-20.403-9.137-20.403-20.403v-25.975c0-11.265 9.137-20.403 20.403-20.403s20.403 9.137 20.403 20.403v25.975c0 11.265-9.137 20.403-20.403 20.403zM1027.979 639.483c-11.265 0-20.403-9.137-20.403-20.403v-25.975c0-11.265 9.137-20.403 20.403-20.403s20.403 9.137 20.403 20.403v25.975c0 11.265-9.137 20.403-20.403 20.403zM1027.979 728.535c-11.265 0-20.403-9.137-20.403-20.403v-25.975c0-11.265 9.137-20.403 20.403-20.403s20.403 9.137 20.403 20.403v25.975c0 11.265-9.137 20.403-20.403 20.403zM1027.979 461.375c-11.265 0-20.403-9.137-20.403-20.403v-14.279c0-11.265 9.137-20.403 20.403-20.403s20.403 9.137 20.403 20.403v14.279c0 11.265-9.137 20.403-20.403 20.403z" />
<glyph unicode="&#xe90b;" glyph-name="financing" d="M812.277 360.283c0-108.507 1.247-212.849-0.623-316.986-0.623-37.49-23.115-57.275-61.229-58.524-47.483-1.458-94.973-0.418-142.245-0.418-143.916 0-287.825 0-431.74 0-69.564 0-88.097 17.91-88.097 85.81-0.206 189.735 0.623 379.464-0.623 569.198-0.206 35.82 9.788 63.523 36.032 88.305 50.607 47.695 99.761 96.844 148.079 147.038 24.786 25.826 51.649 37.696 87.891 37.278 121.835-1.664 243.465-0.418 365.306-0.623 72.269-0.206 104.549-41.237 87.056-110.589-1.458-5.623-5-11.869-9.37-15.411-15.828-12.081-32.697-22.91-52.277-36.655 0 24.157-0.835 46.237 0.206 68.105 1.041 21.663-6.246 31.449-29.368 31.238-110.589-0.623-221.39-1.041-331.979 0.206-26.657 0.206-31.867-11.664-31.238-34.365 0.835-34.779 0.835-69.564 0-104.343-1.247-49.154-16.663-64.147-66.646-65.395-31.655-0.835-63.312 0-94.973-0.206-44.361-0.418-44.778-0.623-44.778-44.361-0.206-154.95 0-309.905 0-464.855 0-18.951 1.458-38.114-0.206-56.859-2.291-26.032 10.411-33.738 33.532-31.655 6.246 0.623 12.704 0 18.951 0 164.531 0 328.856 0 493.387 0 7.917 0 15.828 0.623 23.745 0 22.704-1.876 30.197 8.746 29.991 30.826-0.835 67.894 0.418 135.998-0.623 203.898-1.041 39.99 15.622 65.811 61.857 79.351zM315.555 819.518c-51.025-34.365-117.882-103.925-130.793-134.957 35.614 0 70.187 0.206 104.76-0.206 17.492-0.206 26.244 6.873 26.032 24.991-0.206 34.573 0 69.146 0 110.172zM825.188 718.924c0.418 5.417-2.705 11.246-4.376 17.081-5.417-1.876-11.040-3.541-16.246-6.041-2.499-1.247-4.376-4.582-6.246-7.081-47.067-61.229-94.343-122.465-141.204-183.9-3.747-5-7.499-10.411-8.958-16.246-1.041-3.747 0.835-9.999 3.541-12.287 2.499-2.291 9.999-2.705 12.081-0.623 8.122 7.287 15.411 15.828 22.074 24.368 27.909 36.237 55.4 72.892 83.933 108.719 5 6.246 14.163 9.37 21.451 13.951-2.082-7.917-1.876-17.287-6.458-23.327-32.909-44.361-66.646-88.097-99.966-132.040-6.664-8.746-18.745-20.409-16.663-27.074 8.328-27.074-11.869-41.031-23.327-58.318-22.492-34.365-46.443-67.688-70.811-100.596-36.449-48.942-57.9-104.137-68.311-163.702-0.835-5.205 1.458-11.664 4.376-16.246 1.041-1.664 9.37-0.623 12.704 1.664 37.49 25.409 74.975 49.778 105.384 85.392 53.318 62.482 82.892 144.539 157.035 189.316 48.111 74.146 95.802 148.497 144.333 222.225 11.869 18.122 6.873 32.28-5.417 46.86-28.739 33.95-56.442 38.738-106.842 14.58 3.747 10.205 7.287 16.663 7.917 23.327zM424.897 454.215c-53.524 0-107.26 0-160.785 0-14.993 0-28.95-1.247-29.156-21.451-0.206-20.409 13.54-21.451 28.739-21.451 99.343 0 198.481 0.206 297.824-0.206 15.411 0 28.115 3.124 35.197 17.91 3.124 6.458 4.376 13.745 6.458 20.828-5.829 1.458-11.664 4.165-17.492 4.165-53.736 0.206-107.26 0.206-160.785 0.206 0 0 0 0 0 0zM413.651 506.28c53.524 0 107.048 0.206 160.573-0.206 14.993-0.206 23.115 4.376 23.745 21.245 0.623 18.745-11.040 19.992-24.368 20.203-103.925 0-207.851 0-311.779 0-15.622 0-28.327-3.335-26.868-23.533 1.458-18.327 14.787-17.492 27.492-17.492 50.401-0.418 100.802-0.206 151.203-0.206 0 0 0 0 0 0zM394.071 359.454c-42.695 0-85.392 0-128.088 0-14.369 0-30.197 1.247-31.032-19.575-1.041-24.368 16.869-22.286 32.697-22.286 76.016-0.206 151.826 0.418 227.848-0.418 18.327-0.206 29.156 7.287 38.32 22.074 9.37 15.411 3.124 19.992-11.455 19.992-42.695 0.206-85.598 0-128.293 0.206 0-0.206 0-0.206 0 0zM463.218 142.227c-5.417 6.458-10.623 17.704-16.663 18.122-24.574 1.876-52.483 7.287-73.728-1.664-27.286-11.455-45.819-13.54-64.564 10.411-3.541 4.582-10.411 7.287-16.246 9.37-27.074 9.582-51.649-6.873-53.318-35.82-0.206-5.417 2.499-13.54 6.458-15.622 3.335-1.876 12.081 1.458 15.622 5.205 22.91 23.533 23.745 24.786 46.443 1.458 15.205-15.411 29.368-23.95 49.359-10.623 26.657 18.122 55.188 22.492 88.72 11.455 4.788 2.291 11.455 5 17.91 7.705zM247.868 226.161c-0.418-6.664 12.499-16.246 21.034-20.409 5.829-2.917 16.869-1.458 22.074 2.705 7.917 5.829 12.704 15.622 18.745 23.533-8.328 0.623-16.451 1.664-24.786 1.664-4.376 0-8.958-1.664-12.287-2.291-10.623 4.582-23.533 13.54-24.786-5.205z" />
<glyph unicode="&#xe90c;" glyph-name="carsearch2" horiz-adv-x="1280" d="M1211.432 404.178c-44.435 0-88.615 0-134.077 0-5.365 35.497-20.943 65.887-51.84 86.575-20.685 14.045-43.668 20.431-68.952 19.919-30.902-0.766-56.694-12.005-78.911-32.943s-32.176-48.014-37.541-78.145c-0.512 136.884-64.866 224.479-198.943 260.742 40.862 0 80.19 0 119.519 0 20.685 0 15.066 0 17.622 17.111 3.833 25.284-8.684 38.816-28.091 51.333-33.71 21.964-70.997 34.477-110.068 39.842-38.816 5.365-78.145 6.64-118.241 9.959 0-40.862 0-78.911 0-117.985 10.98 0 22.217 0 33.456 0-109.3-29.369-173.404-98.834-192.303-211.201-4.087 5.365-7.918 10.725-12.005 16.090-28.091 36.263-66.144 50.567-109.813 43.668-47.755-7.406-80.19-36.009-94.235-83.51-2.553-8.684-5.874-12.258-15.578-11.747-17.877 0.766-36.009 0.512-53.887 0-7.406-0.254-9.959 2.043-11.492 9.959-2.553 15.324-8.172 30.389-11.747 45.457-4.599 19.919-1.021 38.307 10.471 55.419 2.807 4.341 5.107 10.214 5.365 15.324 0.766 29.878-0.254 59.759 1.279 89.383 1.021 21.197 3.319 43.415 22.472 57.206 15.066 10.725 31.668 19.153 48.014 28.091 73.55 39.842 151.951 64.866 234.185 79.169 75.338 13.026 151.442 15.578 227.8 11.492 76.615-3.833 147.102-27.325 212.734-66.144 35.497-20.943 70.485-43.415 104.708-66.653 27.071-18.132 57.46-26.304 88.108-34.73 43.668-12.258 87.342-23.751 130.498-37.541 21.197-6.893 42.136-17.877 53.887-38.050 6.64-11.239 8.938-25.284 13.279-38.050 1.021-3.066 1.787-8.427 3.573-8.938 16.598-3.319 15.324-17.622 16.598-28.857s-1.021-22.73-1.787-33.964c-0.254-2.043-1.021-5.365-2.553-6.128-16.090-8.684-10.214-23.751-10.98-36.775 0.254-0.766 0-2.553-0.512-5.365zM500.452 777.799c-22.217-2.043-43.415-4.087-64.612-5.874-51.333-4.341-101.895-14.045-151.442-28.091-36.775-10.471-73.038-22.983-103.173-48.014-10.725-8.938-19.664-19.41-19.919-34.477 113.899 0 226.524 0 339.145 0 0 38.562 0 76.105 0 116.453zM493.047 249.162c-48.522-48.522-97.043-97.043-145.309-145.568-19.153-19.153-58.992-21.964-78.145 5.365-12.258 17.877-10.214 48.522 5.365 64.357 46.222 46.222 92.448 92.703 138.929 138.67 6.128 6.128 6.893 10.214 2.807 18.387-39.328 80.956-32.943 158.593 22.73 229.332 34.988 44.435 82.489 68.699 139.695 75.082 107.772 12.005 207.881-63.591 226.267-170.593 19.41-112.88-52.099-216.308-162.934-240.312-48.014-10.214-94.235-3.319-138.162 19.41-3.319 2.043-7.152 3.833-11.239 5.874zM452.443 427.673c-1.532-80.956 64.866-148.889 147.866-148.63 85.809 0.254 152.715 70.739 148.63 156.548-3.573 74.57-65.122 141.483-150.163 140.97-81.977-0.512-148.122-68.186-146.334-148.889zM256.821 306.11c-48.014-1.021-88.872 39.073-88.615 89.128 0.254 49.543 39.073 89.128 89.128 89.383 52.607 0.254 90.662-43.415 89.637-90.916-0.512-49.543-42.394-89.895-90.15-87.596zM257.075 335.991c31.156-2.553 60.526 26.559 60.271 59.247-0.254 29.878-22.217 59.247-58.992 59.505-32.943 0.254-59.247-23.238-60.271-59.505-0.766-32.436 26.559-59.247 58.992-59.247zM1049.52 394.985c2.807-46.989-41.628-91.428-91.682-89.383-43.415 1.787-87.342 36.521-86.575 89.383 0.766 53.374 39.583 89.383 89.895 89.383 51.333 0.254 89.895-41.628 88.362-89.383zM1019.642 394.217c2.043 30.902-24.517 61.036-58.992 60.526-34.988-0.766-59.759-25.028-59.505-60.271 0.254-37.796 30.389-57.46 56.186-58.992 36.521-2.043 64.357 28.857 62.313 58.739zM710.12 400.603c2.807 0 8.172 4.853 8.172 7.659 0.766 13.536 2.298 27.582 0 41.115-11.239 68.699-81.21 111.859-148.889 93.723-53.887-14.299-100.109-73.293-83.764-143.015 75.338 0 149.908 0 224.479 0.512zM211.618 394.472c0.254-24.517 21.451-44.947 46.479-44.693 26.050 0.254 45.457 20.431 45.202 46.735-0.254 24.262-20.943 43.415-46.222 43.161-25.538-0.254-45.713-20.177-45.457-45.202zM961.161 439.674c-26.050 0.254-45.202-17.877-46.735-44.435-1.279-23.496 21.707-45.457 45.968-45.713 25.284-0.254 45.713 19.664 45.968 44.947 0 26.304-18.898 44.947-45.202 45.202z" />
<glyph unicode="&#xe90d;" glyph-name="payment" horiz-adv-x="1152" d="M814.283 252.117c0 9.553 0 18.296 0 27.857 27.649 0 55.301 0 83.155 0 0 196.198 0 391.377 0 587.37-214.089 0-428.178 0-642.876 0 0-195.183 0-390.768 0-587.17 74.211 0 148.421 0 222.832 0 0-9.553 0-18.296 0-28.057-3.052 0-6.099 0-9.153 0-90.071 0-180.134 0-270.203 0-38.428 0-69.939 31.72-69.939 70.141 0 167.935 0 335.871 0 503.809 0 38.428 31.72 69.939 70.347 69.939 251.907 0 503.809 0 755.715 0 37.819 0 69.739-31.72 69.739-69.53 0-168.142 0-336.48 0-504.625 0-37.819-31.72-69.739-69.53-69.739-46.353 0-92.709 0-140.086 0zM754.306 693.713c-16.669 82.136-86.817 143.132-171.798 146.386-93.324 3.663-179.525-67.094-187.859-166.918-3.254-38.019 4.881-73.802 24.395-106.332 27.040-45.336 66.893-74.211 117.72-86.208-1.018-8.54-2.436-16.469-2.436-24.603-0.2-58.551-0.2-117.111 0-175.87 0-5.69-1.627-9.761-5.69-13.624-14.642-14.233-29.275-28.466-43.1-43.509-3.863-4.272-6.916-10.979-6.916-16.878-0.609-30.093-0.812-59.978 0-90.071 0.2-5.898 3.455-12.806 7.317-17.487 7.725-9.353 16.268-18.504 25.822-26.022 18.296-14.028 25.822-31.108 22.768-54.079-1.827-13.624 4.472-18.504 18.504-18.504 54.288 0 108.367 0 162.654 0 39.037 0 70.347 31.512 70.347 70.756 0 77.465-0.2 155.129 0 232.594 0 18.504-6.708 32.732-22.976 41.473-16.669 8.944-32.329 5.69-46.762-5.289-22.159 14.028-34.565 14.028-56.724 0-11.997 9.153-25.412 13.215-41.473 8.134 0 3.663 0 6.507 0 9.353 0 22.976 0.2 46.153 0 69.13-0.2 17.892-0.609 35.582-1.018 53.878 98.813 23.786 156.146 120.765 137.234 213.681zM561.766 52.058c-1.018 6.099-3.254 13.015-7.317 17.487-14.028 15.251-29.275 29.275-43.509 44.324-2.644 2.644-4.472 7.317-4.676 11.18-0.409 24.194-0.409 48.389 0 72.584 0 3.663 1.827 7.725 4.063 10.571 6.708 7.926 14.233 15.251 23.177 24.395 0-22.568 0-42.9 0-63.64 9.553 0 18.504 0 28.466 0 0 3.052 0 6.507 0 9.761 0 93.524 0.2 187.25-0.2 280.774 0 10.164 7.525 19.516 18.705 16.060 7.116-2.236 9.553-7.926 9.553-15.652-0.2-46.562 0-93.324 0-139.879 0-26.84 0-53.677 0-81.119 9.153 0 17.892 0 28.057 0 0 12.197 0 24.603 0 37.001 0 10.164 0 20.332 0 30.702 0 10.164 5.289 15.86 14.233 15.652 8.54-0.2 13.624-5.69 13.624-15.452 0-22.367 0-44.935 0-67.904 9.153 0 18.096 0 28.057 0 0 11.789 0 23.585 0 35.582 0 11.388-0.2 22.768 0 34.156 0.2 8.334 5.69 13.624 13.624 13.824 8.334 0.2 14.233-5.289 14.434-13.824 0.2-19.722 0-39.646 0-59.368 0-3.254 0-6.3 0-10.164 9.353 0 18.096 0 28.057 0 0 22.976 0 45.949 0 68.921 0 6.916 3.254 12.606 9.553 13.624 4.676 0.812 10.979-1.018 14.642-4.063 2.844-2.236 3.663-8.334 3.663-12.606 0.2-77.465 0-155.129 0.2-232.594 0-15.251-5.69-27.449-17.892-35.783-5.898-4.063-13.624-7.525-20.741-7.725-51.643-0.609-103.286-0.2-154.72-0.2-0.609 0-1.018 0.2-2.644 0.812-0.2 7.525 0.812 15.251-0.409 22.568zM590.233 532.891c-9.353 0-18.296 0-28.057 0 0 8.744 0 17.487 0 26.431-30.293 2.844-55.706 22.367-55.915 56.315 8.54 0 17.278 0 26.631 0 0.609-1.827 1.627-4.063 2.236-6.507 2.844-10.571 9.353-18.504 19.923-19.516 14.233-1.218 29.075-1.627 43.1 0.609 13.415 2.236 21.756 17.278 19.722 29.684-2.236 13.824-13.824 23.786-27.857 24.194-13.015 0.409-26.431-1.218-39.037 1.627-30.293 6.507-48.188 31.108-44.727 60.789 3.052 26.84 23.585 47.98 55.506 50.016 0 8.744 0 17.687 0 27.040 9.761 0 18.504 0 28.057 0 0-8.944 0-17.487 0-26.84 19.923-1.627 36.191-9.153 46.962-25.822 5.898-8.944 9.353-18.905 9.153-30.293-9.353 0-18.096 0-27.244 0-2.436 12.806-8.134 24.603-22.159 26.231-14.233 1.627-29.075 1.426-43.1-0.812-13.015-2.035-21.142-16.878-19.314-29.275 2.035-13.624 13.624-24.194 27.449-24.603 13.624-0.409 27.649 0.812 40.864-1.827 28.666-5.69 46.562-30.702 43.509-59.978-2.844-26.431-22.568-47.98-53.269-50.217-0.609 0-1.018-0.409-2.236-0.609-0.2-8.744-0.2-17.278-0.2-26.631zM393.422 447.501c-9.353 0-18.296 0-27.040 0 0-9.353 0-17.892 0-26.84 8.944 0 17.687 0 27.040 0 0 9.353 0 18.096 0 26.84zM449.336 420.661c0 9.353 0 18.296 0 26.631-9.553 0-18.296 0-27.244 0 0-9.153 0-17.487 0-26.631 9.761 0 18.504 0 27.244 0zM478.612 447.702c0-9.353 0-18.096 0-26.84 9.353 0 18.296 0 27.040 0 0 9.353 0 17.892 0 26.84-9.761 0-18.296 0-27.040 0zM646.548 420.661c9.353 0 18.096 0 26.84 0 0 9.353 0 18.296 0 27.040-9.353 0-17.892 0-26.84 0 0-9.553 0-18.296 0-27.040zM702.663 420.869c9.553 0 18.296 0 26.84 0 0 9.353 0 17.892 0 26.84-9.153 0-17.687 0-26.84 0 0-9.553 0-18.296 0-26.84zM758.369 447.702c0-9.353 0-18.096 0-27.040 9.353 0 18.096 0 27.040 0 0 9.153 0 17.892 0 27.040-9.353 0-18.096 0-27.040 0z" />
<glyph unicode="&#xe90e;" glyph-name="tradein" horiz-adv-x="1088" d="M244.77 252.081c0.231-28.852 9.232-37.854 38.316-37.854 18.696 0 37.623 0 56.32 0 39.47 0 51.011 15.234 41.778 55.858-44.086 2.308-88.404 4.386-136.413 6.924 0-8.309 0-16.619 0-24.929zM804.503 733.106c-22.851 13.157-29.314 10.849-39.239-16.85 9.463-5.771 18.927-12.464 29.314-17.081 10.156-4.617 21.466-7.386 32.084-10.849v-31.622c30.007-6.001 19.389 21.004 27.005 32.084 45.702 9.463 66.014 27.236 72.015 63.937 8.078 48.471-27.698 61.397-63.014 73.861 2.077 22.389 4.155 43.163 6.232 65.321 19.619-2.308 42.702-28.39 51.934 12.464-15.234 7.848-31.161 15.926-48.703 24.698v25.852c-27.005 7.617-21.466-14.541-25.621-26.313-47.779-10.618-69.476-28.621-72.707-62.552-4.155-43.856 25.621-60.243 62.321-70.861-1.846-23.777-3.924-46.625-6.001-73.63-10.618 4.617-18.466 7.386-25.621 11.541zM859.438 786.886c16.157-3.924 27.698-10.618 29.545-27.236 2.077-19.158-9.463-31.622-34.392-36.008 1.615 20.543 3.233 40.624 4.847 63.244zM811.427 866.749c1.846 17.313 13.849 24.005 32.545 25.159-1.615-20.081-3.233-37.854-4.847-57.243-18.235 5.309-29.776 13.849-27.698 32.084zM1012.239 652.55c-9.694 22.62-27.698 31.161-46.163 22.62-18.004-8.309-22.851-26.313-12.926-47.779 42.24-89.788 48.24-184.192 27.236-279.289-52.626-239.358-297.755-392.161-537.574-337.225-238.204 54.703-391.929 298.447-335.609 537.113 56.781 239.589 294.293 394.929 541.037 331.685 25.159-6.463 44.317 3 49.395 23.313 5.078 20.773-7.155 39.47-32.314 43.625-38.547 6.694-66.014 12.233-111.254 13.387-0.462 0-0.692 0-1.154 0-43.163-1.154-65.552-3.463-95.097-8.309-269.134-45.702-454.711-296.37-421.242-567.812 41.778-336.994 399.777-542.653 710.226-404.162 191.579 85.402 293.138 238.666 307.45 447.555 5.54 78.016-10.618 153.494-42.008 225.278zM839.588 277.702c0 0 0 0 0 0 0-0.231 0-0.462 0-0.462s0 0 0.231 0c-0.231 0.231-0.231 0.462-0.231 0.462zM745.875 214.227c12.003 0 24.236 0 36.239 0 55.628 0 62.090 6.924 57.474 63.014-45.702-2.539-90.481-4.847-135.029-7.386-9.001-42.24 1.154-55.628 41.316-55.628zM383.722 663.86c-31.161-6.001-54.703-22.389-69.476-50.549-14.31-27.236-28.39-54.703-39.47-76.401-26.313 5.078-49.165 10.618-72.477 13.618-19.389 2.308-33.699-10.849-35.084-28.621-1.385-19.389 10.618-33.007 30.93-35.084 15.695-1.615 31.161-3 41.778-3.924-1.385-52.857-3.233-103.868-4.155-155.11-0.462-24.236 12.233-37.393 34.392-38.085 57.474-2.308 115.178-6.232 172.652-5.771 120.718 0.692 241.204 3.463 361.922 5.771 35.545 0.692 46.394 12.003 45.702 48.010-1.154 48.010-3.463 96.020-5.309 145.415 10.387 0.923 24.929 2.539 39.239 3.694 22.62 1.846 34.622 14.080 33.699 34.392-0.923 19.619-15.926 32.314-37.623 29.545-22.62-3-44.779-8.771-69.707-13.849-10.849 21.004-24.236 45.933-36.931 71.553-15.695 31.853-40.624 49.857-75.247 56.32-105.253 19.389-210.044 18.927-314.836-0.923zM403.572 388.725c-1.385-7.386-10.156-12.695-17.081-15.003-9.463-3.233-18.466-4.617-32.314-3.694-12.233 0-22.389 1.615-34.161 4.617-33.007 8.078-43.163 24.005-36.7 56.781 0.923 4.617 7.386 10.618 10.849 11.31 19.158 3.924 32.545 0 46.856-5.309 18.466-6.924 35.545-18.004 52.165-29.083 5.771-3.924 11.541-13.849 10.387-19.619zM627.466 296.398c-55.628 0.231-111.485 0.231-167.112 0-13.157 0-20.543 4.386-20.543 18.927s7.155 18.927 20.543 18.696c27.929-0.462 55.628-0.231 83.556-0.231s55.628-0.231 83.556 0c13.157 0.231 20.773-3.924 20.543-18.696 0-14.31-7.386-18.927-20.543-18.696zM815.582 417.809c-0.692-21.696-10.849-35.545-28.621-38.316-27.005-4.386-54.934-7.617-82.171-5.078-8.54 0.923-13.849 9.001-15.003 15.003-0.923 5.54 4.617 15.003 9.926 18.235 19.389 12.233 39.239 24.929 60.243 33.238 15.926 6.232 28.621 4.847 42.24 0.462 7.155-1.615 13.849-12.003 13.387-23.544zM731.334 611.926c18.466-24.929 32.545-53.089 50.78-84.018-160.649 13.618-315.99 17.081-475.947 4.847 17.313 28.39 32.314 58.628 52.857 84.248 8.771 10.849 28.621 15.003 44.086 17.773 96.943 17.542 194.348 17.313 290.83-2.769 13.849-3 29.776-9.926 37.393-20.081z" />
<glyph unicode="&#xe90f;" glyph-name="tradein2" horiz-adv-x="1152" d="M585.147-5.304c43.25 31.923 88.56 65.287 133.87 98.858-2.471-13.181-5.149-28.010-7.826-43.044 135.311 10.092 284.833 209.043 290.394 383.691 6.591 216.663-155.495 415.408-396.666 436.827 1.030 19.154 2.060 38.719 3.089 58.079 142.932 2.677 364.331-106.684 436.003-343.942 72.702-240.965-57.461-519.004-325.406-603.24 7.62-15.652 15.241-31.305 22.243-45.928-52.518 19.772-104.83 39.543-155.701 58.697zM433.771 914.277c-263.208-79.91-397.078-356.505-327.466-596.856 70.436-243.643 291.836-350.739 433.326-350.739 1.442 19.36 3.089 38.719 4.531 58.079-240.965 24.508-393.783 219.752-393.577 423.028 0.412 224.077 166.41 367.421 290.6 398.726-2.883-15.858-5.767-30.893-8.238-44.28 45.104 33.364 90.619 66.935 133.87 98.858-50.459 18.948-102.771 38.719-156.113 58.903 7.62-14.623 15.241-30.069 23.067-45.722zM888.516 455.207c-1.648-61.374-3.295-122.954-5.973-184.328-0.206-5.561-7.414-14.829-11.739-15.241-22.655-1.648-45.516-0.618-70.23-0.618-1.236 17.3-2.265 32.541-3.295 49.223-145.815 0-290.6 0-437.857 0-1.030-16.682-2.060-32.129-3.295-49.223-24.714 0-47.575-0.824-70.23 0.618-4.325 0.206-11.327 9.68-11.739 15.241-1.442 22.037 0 44.28-0.618 66.523-1.030 31.511-0.618 63.228-4.737 94.121-6.179 45.31 9.062 79.704 45.516 105.654 4.531 3.295 8.856 7.002 13.593 10.71-13.181 1.236-26.362 0.206-37.278 4.531-8.238 3.295-17.094 12.769-19.154 21.213-1.030 4.325 10.71 15.241 18.33 17.918 14.829 5.149 30.069 5.355 36.248-14.829 1.030-3.501 5.355-6.179 10.298-11.533 15.652 24.714 31.511 47.369 44.898 71.466 13.387 23.685 32.129 33.364 59.109 35.218 94.327 6.796 188.653 6.796 282.98-0.618 22.037-1.648 37.689-10.298 49.017-29.245 15.035-25.126 31.099-49.429 47.781-75.791 4.737 4.325 9.886 6.796 11.121 10.71 7.62 22.861 24.714 18.536 40.367 13.593 6.179-1.854 15.035-10.504 14.417-15.035-1.030-7.62-6.796-18.536-13.387-21.007-12.563-4.943-27.186-5.149-40.779-7.414 9.268-8.65 19.977-19.154 31.305-28.833 19.566-16.476 25.95-38.307 25.332-63.022zM371.779 559.626c138.607 0 273.712 0 411.907 0-9.886 18.742-19.772 36.866-29.245 54.99-10.71 20.389-27.804 30.481-50.459 30.481-83.823 0.206-167.44 0.824-251.263-0.618-13.799-0.206-31.923-6.179-39.955-16.27-16.476-20.389-27.598-45.31-40.985-68.582zM356.539 363.146c0 12.151-9.886 21.831-21.831 21.831s-21.831-9.886-21.831-21.831 9.886-21.831 21.831-21.831 21.831 9.68 21.831 21.831zM435.213 483.629c-40.779 3.913-77.644 7.414-114.304 11.121-12.769 1.236-17.918-4.531-17.918-17.3-0.206-18.33 8.238-28.833 25.95-30.069 19.154-1.442 38.513-1.648 57.667-1.030 22.037 0.618 35.836 14.005 48.605 37.278zM692.037 428.845c-37.895 1.854-75.173 1.442-113.274 1.442-0.618 0-0.412 0-0.618 0-21.419 0-43.044 0.412-64.463 0-19.36-0.412-38.719-0.618-57.873-2.471-16.888-1.648-24.714-10.298-16.476-27.804 3.089-6.385 6.179-12.975 8.238-19.772 7.414-25.332 23.891-33.776 49.841-32.953 50.047 1.648 100.299 0.618 150.346 0.412 47.781 0 47.781 0 65.699 44.28 11.533 27.392 8.032 35.424-21.419 36.866zM837.852 363.146c0 12.151-9.886 21.831-21.831 21.831-12.151 0-21.831-9.886-21.831-21.831s9.886-21.831 21.831-21.831c11.945-0.206 21.831 9.68 21.831 21.831zM851.65 485.688c0 3.295-13.181 9.062-19.977 8.65-35.424-2.471-70.642-6.591-108.537-10.504 17.918-36.66 95.562-54.166 121.307-29.245 6.591 6.385 7.414 20.595 7.208 31.099z" />
<glyph unicode="&#xe910;" glyph-name="testdrive" horiz-adv-x="1056" d="M828.5 619.738c14.752 32.588 27.965 61.873 41.176 91.159 5.945 12.99 12.551 27.084 29.727 20.037 18.055-7.485 14.091-22.461 7.485-36.771-33.909-73.764-67.596-147.524-101.286-221.289-1.763-3.745-2.423-9.248-5.066-10.57-8.587-4.624-18.055-7.485-27.084-11.23-2.861 9.468-10.35 20.478-7.485 27.745 12.11 32.146 27.303 63.413 42.716 98.202-50.201-12.99-98.425-22.68-144.881-38.31-48.001-16.074-93.801-3.745-140.481 2.423-11.010 1.54-22.019 3.304-37.212 5.727 4.183-12.77 7.708-23.559 11.23-34.35 10.128-31.267 18.274-63.413 31.486-93.14 11.67-26.642 7.708-48.001-4.843-72.662-25.103-49.322-47.559-100.184-71.122-150.608-33.467-2.423-72.881 25.103-84.991 65.396-30.165 98.202-60.33 196.409-86.312 295.71-13.872 52.626 35.891 127.050 121.765 106.129 47.559-11.449 95.122-23.559 141.36-39.194 35.231-11.891 68.256-11.010 103.269-0.442 39.854 12.11 80.589 21.139 121.105 31.048 24.88 5.727 39.631-2.861 59.45-35.010zM501.3 197.64c28.625 61.213 55.049 118.681 82.57 175.71 2.2 4.843 10.789 9.029 16.515 9.248 52.626 0.66 105.25 1.54 157.876 0 27.965-0.879 50.643-12.551 62.972-40.954 42.716-97.104 86.534-193.543 129.469-290.429 13.872-31.486 1.102-64.515-27.745-77.728-29.504-13.431-61.213-1.763-76.625 30.165-35.45 73.104-70.238 146.426-104.59 219.968-7.927 17.176-16.734 20.697-35.67 15.855-60.771-14.97-122.203-27.303-183.416-40.516-5.285-1.321-10.789-0.879-21.358-1.321zM356.637 927.999c56.147 0.219 96.663-40.735 96.444-96.002 0-56.588-38.533-97.104-98.644-97.323-51.303-0.219-95.559 39.194-94.68 97.542 0.879 54.165 42.497 96.002 96.881 95.783zM257.993 650.782c-5.727-11.23-10.35-20.037-15.632-29.946-42.497 28.406-84.991 54.607-124.626 84.553-10.35 7.708-12.11 26.424-18.055 40.073 2.642 1.763 5.285 3.745 7.708 5.504 49.541-33.030 98.863-65.837 150.608-100.184zM495.355 193.016c-23.121-49.983-42.716-92.038-62.753-134.973-12.33 0-25.103 0-40.293 0 19.595 42.056 36.771 83.451 58.35 122.426 4.624 8.146 25.103 7.485 44.698 12.551z" />
<glyph unicode="&#xe911;" glyph-name="photo-camera" d="M512 544.4c-79.867 0-144.6-64.76-144.6-144.6 0-79.867 64.733-144.6 144.6-144.6 79.847 0 144.6 64.733 144.6 144.6 0 79.84-64.753 144.6-144.6 144.6zM897.6 689h-115.68c-15.906 0-33.045 12.339-38.068 27.436l-29.904 89.738c-5.041 15.087-22.162 27.426-38.068 27.426h-327.76c-15.906 0-33.045-12.339-38.068-27.436l-29.904-89.738c-5.041-15.087-22.162-27.426-38.068-27.426h-115.68c-53.020 0-96.4-43.38-96.4-96.4v-433.8c0-53.020 43.38-96.4 96.4-96.4h771.2c53.020 0 96.4 43.38 96.4 96.4v433.8c0 53.020-43.38 96.4-96.4 96.4zM512 158.8c-133.101 0-241 107.899-241 241 0 133.090 107.899 241 241 241 133.080 0 241-107.91 241-241 0-133.101-107.92-241-241-241zM863.86 525.189c-18.626 0-33.74 15.097-33.74 33.74 0 18.626 15.114 33.74 33.74 33.74 18.643 0 33.74-15.114 33.74-33.74 0-18.643-15.107-33.74-33.74-33.74z" />
<glyph unicode="&#xe912;" glyph-name="compare" d="M28.6 312c103.8 0 201 0 303.2 0-33.4 84.4-65.8 166.2-100.2 252.8-23.8-60.2-45.4-114.8-67.2-169.8-28.8 0-57 0-88 0 18.8 47 37 93 55.4 139 21.8 54.8 44.2 109.4 65.2 164.6 4.4 11.6 10 15 21.8 14.8 39.2-0.6 78.6 0.2 117.8-0.6 13.4-0.2 19.8 3 24.6 17 23 68.6 83.8 106.8 156.6 102.6 34.6-2 65.8-10.4 94.8-29.6 26.8-18 42.2-44 50.6-72.8 4.6-15.8 11.4-17 23.8-17 39.2 0.2 78.6-0.4 117.8 0.4 12 0.2 17-3.6 21.4-15.2 51.4-131 102.8-262 156-392.2 20.8-51 5.2-96.4-20-138.4-37-61.8-95.8-94.4-166.8-95.2-99.2-1.2-187.4 66-201 172-1.4 10.6-3.4 21.4-4.2 32-0.8 10.8-0.2 21.6-0.2 34.4 101.4 0 201.4 0 306.2 0-35.2 88-69 172.6-104.6 261.8-24.8-61.4-48.2-119.2-71.6-177.2-28.8 0-56.8 0-87.6 0 33.2 79.8 65.6 157.8 99.2 239.2-19 0-35 1.2-50.4-0.8-5.2-0.6-11.8-9-13.6-15-39.2-122.8-199.6-135.2-270.8-58.6-14.6 15.6-24.8 36.6-32.8 56.8-5.2 13-9.4 19-23.6 18-15.2-1.2-30.4-0.2-49.2-0.2 10.8-28 20.6-53.6 30.8-79.2 35.4-88.8 71.2-177.2 106.2-266.2 12-30.4 1-60.8-9.8-87.6-28.8-71.6-81.8-114.6-160.2-126.2-104.2-15.4-198.2 54.4-219.4 144.2-6.8 28.6-6.6 59.2-10.2 92.2zM510.2 594.8c45.2-0.4 79.8 32 80 75 0.2 46.4-32.2 82.2-75 82.6-46.8 0.4-79-32-83-75.2-3.6-40.6 37.8-87 78-82.4zM120.8 232.4c21.6-52.2 66.8-79.2 123.8-78.2 34.4 0.6 93.2 47.2 99.4 78.2-74 0-147.8 0-223.2 0zM682.2 232c20-51.2 64.8-79.6 121-77.4 30.6 1.2 87 32.2 100.2 77.4-73.2 0-146.4 0-221.2 0z" />
<glyph unicode="&#xe913;" glyph-name="play" d="M680.895 468.019l-212.631 154.566c-7.803 5.657-18.162 6.508-26.715 2.113-8.621-4.362-14.005-13.221-14.005-22.796v-309.030c0-9.677 5.384-18.503 14.005-22.865 3.646-1.84 7.633-2.76 11.654-2.76 5.248 0 10.563 1.67 15.061 4.975l212.631 154.43c6.713 4.941 10.632 12.574 10.632 20.684 0.034 8.246-3.987 15.845-10.632 20.684zM512.017 959.932c-282.826 0-512.017-229.191-512.017-512.017 0-282.724 229.191-511.847 512.017-511.847 282.758 0 511.983 229.157 511.983 511.847 0.034 282.826-229.225 512.017-511.983 512.017zM512.017 21.495c-235.529 0-426.488 190.856-426.488 426.42 0 235.461 190.959 426.556 426.488 426.556 235.495 0 426.42-191.061 426.42-426.556 0.034-235.563-190.924-426.42-426.42-426.42z" />
<glyph unicode="&#xe914;" glyph-name="price-tag1" d="M815.48 423.693l-380.822-380.822c-4.438-4.438-9.299-8.665-14.371-12.469 6.34-1.691 12.891-2.536 19.654-2.536h357.998c43.323 0 78.616 35.293 78.616 78.616v320.169c-16.907 1.057-34.236 3.17-52.199 6.551-2.747-3.17-5.706-6.34-8.876-9.51zM976.516 673.065c-0.634 0.634-1.268 1.268-1.902 1.902-35.293 35.293-86.646 67.838-144.974 92.141-10.567 4.438-21.345 8.453-32.123 12.046v0.634c-0.634 46.705-38.251 84.322-84.956 84.956l-228.239 3.381c-30.221 0.423-59.384-11.412-80.729-32.757l-380.61-381.033c-30.643-30.643-30.643-80.518 0-111.161l253.177-253.177c30.643-30.643 80.518-30.643 111.161 0l381.033 381.033c10.989 10.989 19.231 23.881 24.937 38.040 38.251-10.778 75.446-16.484 108.202-16.273 81.152 0.423 107.991 35.927 116.867 57.060 8.665 21.133 15.005 65.302-41.844 123.207zM505.032 456.872c-8.876-4.861-17.963-10.144-27.051-14.793-8.665-4.438-11.623-3.381-14.793 5.917-6.551 18.597-17.118 34.447-31.7 47.55-3.804 3.381-7.819 6.551-12.68 8.453-17.329 6.763-32.545-4.438-30.432-23.035 1.057-9.299 4.015-18.175 7.608-26.839 6.129-15.005 12.68-30.009 17.118-45.648 14.371-49.875-17.329-98.904-67.415-103.764-18.175-1.691-35.504 2.113-51.354 11.201-6.974 4.015-12.257 3.593-17.541-2.325-5.283-5.706-11.201-10.989-16.695-16.484-4.861-4.861-10.144-5.072-15.005-0.211-6.129 5.706-12.046 11.835-17.963 17.752-5.072 5.283-4.649 10.778 0.423 15.85 4.015 4.015 8.031 8.242 12.046 12.257 8.876 9.087 8.876 9.721 1.691 19.654-9.299 12.68-17.541 25.994-22.613 40.999-4.015 11.623-2.959 14.582 7.608 20.499 7.819 4.438 15.639 8.876 23.669 13.103 9.299 4.861 12.046 3.804 15.216-6.129 5.283-16.907 13.948-31.911 24.726-45.859 6.974-9.087 15.639-15.85 26.205-20.077 19.865-7.819 38.040 6.129 35.927 27.262-0.634 7.185-2.747 14.159-5.495 20.922-6.763 17.329-15.427 34.025-19.865 52.411-7.397 29.587-4.015 56.637 19.865 77.77 27.051 23.881 57.271 25.36 89.182 10.567 13.103-6.129 13.103-6.34 23.247 3.804 3.381 3.381 6.763 6.763 10.355 10.144 7.819 7.397 10.355 7.397 18.175 0 2.325-2.325 4.649-4.649 6.974-6.974 16.061-16.061 16.061-16.061 0-32.334-11.412-11.412-11.412-11.412-1.902-24.515 7.397-10.144 13.103-20.922 17.541-32.545 2.325-6.34 1.057-11.201-5.072-14.582zM957.073 575.218c-7.185-17.118-83.899-32.123-200.343 16.484-34.236 14.159-65.936 31.911-91.93 50.931-0.845-1.057-1.902-2.113-2.747-3.17-25.36-25.36-66.781-25.36-92.141 0s-25.36 66.781 0 92.141 66.781 25.36 92.141 0c15.216-15.216 21.133-35.927 18.386-55.581 24.937-17.752 54.947-34.025 86.858-47.339 11.412-4.649 22.19-8.876 32.757-12.469l-1.268 91.718c1.902-0.845 3.593-1.479 5.495-2.325 49.875-20.711 94.677-49.029 123.63-77.982 0.423-0.423 0.845-0.845 1.268-1.268 27.473-27.685 30.221-45.437 27.896-51.143z" />
<glyph unicode="&#xe915;" glyph-name="refresh-button" d="M116.271 532.012c32.921 0 62.657 19.766 75.391 50.133 52.578 125.268 176.209 213.551 320.338 213.551 79.437 0 152.264-27.227 210.651-72.386l-45.764-7.085c-15.632-2.423-27.793-14.825-29.911-30.5-2.123-15.666 6.322-30.865 20.737-37.343l251.667-113.222c11.032-4.954 23.812-4.002 33.98 2.533 10.151 6.545 16.317 17.776 16.385 29.861l1.305 277.302c0.088 15.775-10.195 29.726-25.271 34.325-15.101 4.598-31.414-1.238-40.15-14.369l-34.688-52.132c-92.484 91.040-219.211 147.319-358.941 147.319-211.868 0-394.027-129.383-471.717-313.276-10.79-25.489-8.070-54.675 7.207-77.735 15.277-23.068 41.1-36.977 68.782-36.977zM976.513 327.009c-15.279 23.070-41.105 36.977-68.784 36.977-32.921 0-62.657-19.766-75.391-50.133-52.58-125.268-176.211-213.551-320.338-213.551-79.439 0-152.266 27.227-210.655 72.386l45.766 7.081c15.63 2.423 27.79 14.827 29.913 30.504 2.121 15.664-6.322 30.865-20.737 37.343l-251.667 113.222c-11.034 4.952-23.812 4.004-33.982-2.533-10.149-6.545-16.317-17.776-16.383-29.859l-1.307-277.302c-0.088-15.775 10.193-29.726 25.271-34.325 15.101-4.598 31.416 1.24 40.15 14.373l34.688 52.132c92.482-91.045 219.211-147.323 358.941-147.323 211.872 0 394.024 129.381 471.713 313.274 10.796 25.489 8.077 54.673-7.198 77.735z" />
<glyph unicode="&#xe916;" glyph-name="left-arrow" d="M280.837 728.837l45.588-45.588-202.994-202.994h900.57v-64.511h-900.57l202.994-202.994-45.588-45.588-280.837 280.837z" />
<glyph unicode="&#xe917;" glyph-name="right-arrow" d="M743.156 728.843l-45.612-45.614 202.973-202.975h-900.517v-64.509h900.517l-202.973-202.973 45.612-45.614 280.844 280.844z" />
<glyph unicode="&#xe918;" glyph-name="right-arrow1" d="M512-64c282.31 0 512 229.69 512 512s-229.69 512-512 512-512-229.69-512-512 229.69-512 512-512zM512 908.842c254.121 0 460.842-206.721 460.842-460.842s-206.721-460.842-460.842-460.842-460.842 206.721-460.842 460.842 206.721 460.842 460.842 460.842zM289.618 422.316h382.956l-100.228-100.228c-10.023-10.023-10.023-26.101 0-36.124 5.011-5.011 11.485-7.517 18.166-7.517s13.155 2.506 18.166 7.517l143.869 143.869c10.023 10.023 10.023 26.101 0 36.124l-143.869 143.869c-10.023 10.023-26.101 10.023-36.124 0s-10.023-26.101 0-36.124l100.228-100.228h-383.165c-14.199 0-25.684-11.485-25.684-25.684s11.485-25.475 25.684-25.475z" />
<glyph unicode="&#xe919;" glyph-name="road" d="M246.045 809.321l-246.045-722.643h124.36l178.436 722.643zM777.955 809.321h-56.751l178.436-722.643h124.36zM351.331 809.321l-178.056-722.643h263.482l7.255 106.347h135.977l7.255-106.347h263.482l-178.050 722.643h-321.344zM488.57 801.036h46.862l7.424-101.337h-61.715l7.428 101.337zM473.72 598.365h76.565l7.426-101.335h-91.423l7.432 101.335zM451.442 294.365l7.424 101.331h106.271l7.43-101.331h-121.125z" />
</font>
</defs>
</svg>
